<?xml version="1.0" standalone="no"?>
<!DOCTYPE svg PUBLIC "-//W3C//DTD SVG 1.1//EN" "http://www.w3.org/Graphics/SVG/1.1/DTD/svg11.dtd" >
<svg xmlns="http://www.w3.org/2000/svg">
<metadata>Generated by IcoMoon</metadata>
<defs>
<font id="icomoon" horiz-adv-x="1024">
<font-face units-per-em="1024" ascent="960" descent="-64" />
<missing-glyph horiz-adv-x="1024" />
<glyph unicode="&#x20;" horiz-adv-x="512" d="" />
<glyph unicode="&#xe900;" glyph-name="add" d="M959.953 490.715h-383.981v383.981c0 35.352-28.658 64.009-64.009 64.009s-64.009-28.658-64.009-64.009v0-383.981h-383.981c-35.352 0-64.009-28.658-64.009-64.009s28.658-64.009 64.009-64.009v0h383.981v-383.981c0-35.352 28.658-64.009 64.009-64.009s64.009 28.658 64.009 64.009v0 383.981h383.981c35.352 0 64.009 28.658 64.009 64.009s-28.658 64.009-64.009 64.009v0z" />
<glyph unicode="&#xe901;" glyph-name="arrow-down" d="M544.403-78.688c10.921 4.303 20.271 10.369 28.167 17.937l-0.036-0.035 426.34 426.34c15.524 15.5 25.114 36.918 25.114 60.581 0 47.29-38.329 85.621-85.621 85.621-23.627 0-45.013-9.567-60.5-25.041l0.002 0.002-280.785-281.379v647.521c0 47.098-38.18 85.266-85.266 85.266s-85.266-38.18-85.266-85.266v0-647.447l-280.444 281.379c-15.491 15.475-36.882 25.039-60.5 25.039-47.29 0-85.621-38.329-85.621-85.621 0-23.666 9.602-45.085 25.114-60.579l426.341-426.341c15.739-14.922 37.063-24.083 60.524-24.083 11.667 0 22.812 2.266 33.002 6.389l-0.587-0.204z" />
<glyph unicode="&#xe902;" glyph-name="arrow-left" d="M6.451 394.447c4.305-10.927 10.371-20.278 17.94-28.18l-0.031 0.033 426.493-426.493c15.498-15.534 36.927-25.14 60.606-25.14 47.287 0 85.62 38.334 85.62 85.62 0 23.607-9.559 44.988-25.018 60.477l0.001-0.001-281.485 280.633h647.754c47.107 0 85.299 38.191 85.299 85.299s-38.191 85.299-85.299 85.299v0h-647.675l281.485 280.288c15.529 15.516 25.137 36.961 25.137 60.646 0 47.352-38.388 85.74-85.74 85.74-23.665 0-45.090-9.588-60.607-25.092l-426.493-426.493c-14.916-15.735-24.084-37.045-24.084-60.501 0-11.659 2.268-22.789 6.385-32.98l-0.208 0.588z" />
<glyph unicode="&#xe903;" glyph-name="arrow-left-long" d="M3.005 442.769c2.152 5.465 5.188 10.145 8.976 14.098l-0.014-0.015 213.374 213.374c7.749 7.781 18.473 12.596 30.321 12.596 23.632 0 42.789-19.158 42.789-42.789 0-11.784-4.764-22.455-12.47-30.194l-140.826-140.826h836.171c23.569 0 42.675-19.107 42.675-42.675v0c0-23.569-19.107-42.675-42.675-42.675v0h-836.171l140.827-140.272c7.694-7.725 12.451-18.383 12.451-30.15 0-23.599-19.131-42.729-42.729-42.729-11.831 0-22.539 4.809-30.277 12.577l-213.375 213.375c-7.462 7.874-12.051 18.536-12.051 30.27 0 5.834 1.134 11.403 3.195 16.499l-0.106-0.295z" />
<glyph unicode="&#xe904;" glyph-name="arrow-right" d="M1017.55 458.887c-4.305 10.927-10.371 20.278-17.939 28.18l0.031-0.033-426.493 426.493c-15.497 15.533-36.927 25.14-60.606 25.14-47.287 0-85.62-38.334-85.62-85.62 0-23.608 9.56-44.987 25.018-60.477l-0.001 0.001 281.485-280.632h-647.754c-47.107 0-85.299-38.192-85.299-85.299s38.192-85.299 85.299-85.299v0h647.674l-281.485-280.287c-15.529-15.515-25.137-36.961-25.137-60.647 0-47.351 38.388-85.74 85.74-85.74 23.666 0 45.089 9.588 60.608 25.092l426.493 426.493c14.916 15.734 24.084 37.045 24.084 60.501 0 11.66-2.268 22.789-6.386 32.98l0.208-0.588z" />
<glyph unicode="&#xe905;" glyph-name="calendar" d="M870.401 836.263h-102.395v51.204c0 28.279-22.924 51.204-51.204 51.204s-51.204-22.924-51.204-51.204v0-51.204h-307.198v51.204c0 28.279-22.924 51.204-51.204 51.204s-51.204-22.924-51.204-51.204v-51.204h-102.395c-84.827 0-153.599-68.771-153.599-153.599v0-614.395c0-84.827 68.771-153.599 153.599-153.599v0h716.795c84.827 0 153.599 68.771 153.599 153.599v614.395c0 84.827-68.771 153.599-153.599 153.599v0zM921.596 68.266c0-28.279-22.924-51.204-51.204-51.204v0h-716.795c-28.279 0-51.204 22.924-51.204 51.204v0 358.401h819.198zM921.596 529.062h-819.198v153.599c0 28.279 22.924 51.204 51.204 51.204v0h102.395v-51.204c0-28.279 22.924-51.204 51.204-51.204s51.204 22.924 51.204 51.204v0 51.204h307.198v-51.204c0-28.279 22.924-51.204 51.204-51.204s51.204 22.924 51.204 51.204v51.204h102.395c28.279 0 51.204-22.924 51.204-51.204v0z" />
<glyph unicode="&#xe906;" glyph-name="chevron-right" d="M689.9 427.987c0 0.097 0.001 0.213 0.001 0.329 0 16.263-6.549 30.993-17.156 41.703l-237.067 236.98c-10.768 10.768-25.645 17.427-42.075 17.427-32.861 0-59.503-26.639-59.503-59.503 0-16.432 6.659-31.309 17.425-42.075v0l196.197-194.864-188.379-195.489c-12.245-10.907-19.92-26.719-19.92-44.324 0-32.735 26.535-59.271 59.269-59.271 18.492 0 35.003 8.468 45.873 21.736l0.083 0.104 228.631 236.984c10.077 10.433 16.369 24.588 16.616 40.205v0.048z" />
<glyph unicode="&#xe907;" glyph-name="close" d="M601.763 426.586l273.83 273.218c12.517 11.707 20.31 28.319 20.31 46.755 0 35.327-28.643 63.973-63.973 63.973-18.439 0-35.050-7.802-46.727-20.274l-0.028-0.036-273.141-273.753-273.303 273.83c-11.707 12.517-28.319 20.31-46.755 20.31-35.327 0-63.973-28.643-63.973-63.973 0-18.439 7.802-35.050 20.274-46.727l0.036-0.028 273.83-273.303-273.83-273.141c-12.517-11.707-20.31-28.319-20.31-46.755 0-35.327 28.643-63.973 63.973-63.973 18.439 0 35.050 7.802 46.727 20.274l0.028 0.036 273.303 273.83 273.218-273.83c11.707-12.517 28.319-20.31 46.755-20.31 35.327 0 63.973 28.643 63.973 63.973 0 18.439-7.802 35.050-20.274 46.727l-0.036 0.028z" />
<glyph unicode="&#xe908;" glyph-name="edit" d="M871.414 15.862h-718.896c-28.362 0-51.358-22.994-51.358-51.358s22.994-51.358 51.358-51.358v0h718.896c28.362 0 51.358 22.994 51.358 51.358s-22.994 51.358-51.358 51.358v0zM152.586 118.576h4.62l214.119 19.53c24.398 2.508 45.925 13.212 62.12 29.273l462.131 462.131c16.716 17.628 26.988 41.504 26.988 67.772 0 28.052-11.72 53.368-30.524 71.322l-140.772 140.712c-18.324 17.244-43.084 27.83-70.307 27.83-25.334 0-48.538-9.177-66.443-24.381l0.15 0.123-462.134-462.134c-16.058-16.188-26.765-37.714-29.232-61.667l-0.036-0.444-21.996-214.119c-0.14-1.427-0.222-3.077-0.222-4.742 0-28.283 22.928-51.205 51.205-51.205 0.12 0 0.243 0 0.363 0.002h-0.015zM679.912 837.472l140.178-140.178-102.66-100.129-137.652 137.594zM222.884 380.022l289.116 287.017 138.636-138.636-287.572-287.629-154.045-14.361z" />
<glyph unicode="&#xe909;" glyph-name="euro" d="M512-85.392c-282.769 0-512 229.231-512 512s229.231 512 512 512c282.769 0 512-229.231 512-512v0c0-282.769-229.231-512-512-512v0zM512 17.032c226.236 0 409.635 183.398 409.635 409.635s-183.398 409.635-409.635 409.635c-226.236 0-409.635-183.398-409.635-409.635v0c0-226.236 183.398-409.635 409.635-409.635v0zM412.156 477.846h253.451v-102.422h-253.451c12.283-58.884 63.757-102.492 125.418-102.492 31.608 0 60.54 11.461 82.867 30.444l-0.18-0.153 87.061-58c-42.252-45.877-102.612-74.519-169.668-74.519-118.198 0-215.608 89.004-228.873 203.646l-0.102 1.068h-52.655v102.422h52.595c13.309 115.766 110.745 204.833 228.985 204.833 67.11 0 127.518-28.692 169.625-74.474l0.15-0.164-87.127-58c-22.145 18.838-51.079 30.297-82.687 30.297-61.66 0-113.135-43.602-125.272-101.657l-0.146-0.83z" />
<glyph unicode="&#xe90a;" glyph-name="external" d="M967.098 483.532c-31.402 0-56.865-25.454-56.865-56.865v0-341.309c0-31.402-25.454-56.865-56.865-56.865h-682.685c-31.402 0-56.865 25.454-56.865 56.865v682.62c0 31.402 25.454 56.865 56.865 56.865v0h341.309c31.426 0 56.892 25.475 56.892 56.892s-25.475 56.892-56.892 56.892h-341.309c-94.255 0-170.655-76.4-170.655-170.655v0-682.62c0-94.255 76.4-170.655 170.655-170.655v0h682.62c94.255 0 170.655 76.4 170.655 170.655v0 341.309c0 31.402-25.454 56.865-56.865 56.865v0zM739.591 824.84h89.902l-357.832-357.211c-11.174-10.451-18.145-25.297-18.145-41.766 0-31.552 25.58-57.129 57.129-57.129 16.47 0 31.306 6.971 41.733 18.107l0.033 0.036 357.832 357.211v-89.902c0-31.426 25.475-56.892 56.892-56.892s56.892 25.475 56.892 56.892v0 227.591c0 31.402-25.454 56.865-56.865 56.865v0h-227.591c-31.426 0-56.892-25.475-56.892-56.892s25.475-56.892 56.892-56.892v0z" />
<glyph unicode="&#xe90b;" glyph-name="chevron-down" d="M510.68 248.767c-0.097 0-0.213-0.001-0.329-0.001-16.263 0-30.993 6.549-41.703 17.156l-236.98 237.067c-10.768 10.768-17.427 25.645-17.427 42.075 0 32.861 26.639 59.503 59.503 59.503 16.432 0 31.309-6.659 42.075-17.425v0l194.864-196.197 195.489 188.379c10.907 12.245 26.719 19.92 44.324 19.92 32.735 0 59.271-26.535 59.271-59.269 0-18.492-8.468-35.003-21.736-45.873l-0.104-0.083-236.984-228.631c-10.433-10.077-24.588-16.369-40.205-16.616h-0.048z" />
<glyph unicode="&#xe90c;" glyph-name="menu" d="M51.2 631.467h921.6c28.277 0 51.2 22.923 51.2 51.2s-22.923 51.2-51.2 51.2v0h-921.6c-28.277 0-51.2-22.923-51.2-51.2s22.923-51.2 51.2-51.2v0zM972.8 221.867h-921.6c-28.277 0-51.2-22.923-51.2-51.2s22.923-51.2 51.2-51.2v0h921.6c28.277 0 51.2 22.923 51.2 51.2s-22.923 51.2-51.2 51.2v0zM972.8 477.867h-921.6c-28.277 0-51.2-22.923-51.2-51.2s22.923-51.2 51.2-51.2v0h921.6c28.277 0 51.2 22.923 51.2 51.2s-22.923 51.2-51.2 51.2v0z" />
<glyph unicode="&#xe90d;" glyph-name="file" d="M985.6 631.469v-665.215c0.001-0.112 0.001-0.252 0.001-0.385 0-28.14-22.705-50.985-50.796-51.201h-819.985c-28.068 0-50.82 22.75-50.82 50.82v922.361c0.219 28.114 23.053 50.82 51.202 50.82 0.001 0 0.001 0 0.003 0h563.196zM883.196 580.266h-255.995v255.995h-460.796v-819.198h716.795zM320.002 682.662h153.599v-102.395h-153.599zM320.002 477.871h409.596v-102.395h-409.596zM320.002 273.068h409.596v-102.395h-409.596z" />
<glyph unicode="&#xe90e;" glyph-name="gmap" d="M618.769 921.878c-32.197 10.548-69.253 16.631-107.724 16.631-109.576 0-207.636-49.337-273.157-127.017l-0.442-0.537 168.909-141.936zM237.394 810.967c-52.043-61.458-83.687-141.636-83.687-229.212 0-0.126 0-0.252 0-0.372v0.018c-0.021-1.549-0.036-3.387-0.036-5.221 0-59.82 13.044-116.593 36.435-167.628l-1.032 2.508 217.019 257.969zM510.876 717.909c75.419-0.036 136.547-61.188 136.547-136.615 0-33.684-12.19-64.524-32.399-88.333l0.16 0.199 212.625 252.804c-43.998 83.388-117.558 146.213-206.408 175.212l-2.532 0.712-212.772-252.852c25.16 29.994 62.653 48.931 104.572 48.931 0.072 0 0.142 0 0.214 0h-0.012zM510.928 444.786c-75.458 0.027-136.619 61.203-136.619 136.667 0 33.444 12.013 64.087 31.961 87.837l-217.193-258.176c48.37-87.852 102.179-163.718 163.451-232.821l-1.139 1.309 263.806 313.404c-25.159-29.667-62.459-48.371-104.124-48.371-0.051 0-0.1 0-0.151 0h0.012zM610.020 93.919c119.104 186.313 258.074 270.923 258.074 487.482 0 0.118 0 0.258 0 0.397 0 59.993-14.867 116.519-41.113 166.091l0.931-1.933-476.431-566.615c20.22-26.46 40.539-54.663 60.446-85.685 72.424-111.943 52.309-179.148 99.092-179.148s26.564 67.209 98.987 179.148z" />
<glyph unicode="&#xe90f;" glyph-name="heart-outline" d="M512-31.417c-0.089 0-0.193-0.002-0.295-0.002-13.982 0-26.649 5.639-35.848 14.765l0.005-0.005-395.478 395.988c-49.616 48.421-80.386 115.96-80.386 190.683 0 147.1 119.25 266.35 266.35 266.35 74.722 0 142.259-30.77 190.627-80.329l55.020-55.020 54.969 54.969c48.421 49.616 115.96 80.386 190.683 80.386 147.1 0 266.35-119.25 266.35-266.35 0-74.722-30.77-142.259-80.329-190.627l-0.051-0.051-395.478-395.988c-9.197-9.122-21.861-14.76-35.846-14.76-0.104 0-0.207 0-0.312 0.002h0.014zM268.705 732.059c-0.218 0.002-0.478 0.002-0.739 0.002-45.045 0-85.819-18.289-115.31-47.844l-0.005-0.005c-29.662-29.811-47.994-70.915-47.994-116.304s18.335-86.491 48.003-116.307l-0.009 0.009 359.342-359.851 359.342 359.851c29.662 29.811 47.994 70.915 47.994 116.304s-18.335 86.491-48.003 116.307l0.009-0.009c-30.198 28.58-71.074 46.15-116.047 46.15s-85.848-17.57-116.125-46.222l0.078 0.072-91.108-91.616c-9.224-9.3-22.011-15.058-36.136-15.058s-26.914 5.757-36.133 15.053l-0.005 0.005-91.108 91.616c-29.487 29.56-70.262 47.847-115.311 47.847-0.257 0-0.519-0.002-0.779-0.003h0.041z" />
<glyph unicode="&#xe910;" glyph-name="chevron-up" d="M510.68 604.567c-0.097 0-0.213 0.001-0.329 0.001-16.263 0-30.993-6.549-41.703-17.156l-236.98-237.067c-10.768-10.768-17.427-25.645-17.427-42.075 0-32.861 26.639-59.503 59.503-59.503 16.432 0 31.309 6.659 42.075 17.425v0l194.864 196.197 195.489-188.379c10.907-12.245 26.719-19.92 44.324-19.92 32.735 0 59.271 26.535 59.271 59.269 0 18.492-8.468 35.003-21.736 45.873l-0.104 0.083-236.984 228.631c-10.433 10.077-24.588 16.369-40.205 16.616h-0.048z" />
<glyph unicode="&#xe911;" glyph-name="logout" d="M153.602-85.329c-28.278 0-51.202 22.924-51.202 51.202v0 921.589c0 28.278 22.924 51.202 51.202 51.202v0h716.792c28.278 0 51.202-22.924 51.202-51.202v0-153.598h-102.396v102.396h-614.393v-819.193h614.393v102.396h102.396v-153.598c0-28.278-22.924-51.202-51.202-51.202v0zM819.196 221.867v153.598h-358.398v102.396h358.398v153.598l255.996-204.8z" />
<glyph unicode="&#xe912;" glyph-name="mail" d="M870.396 842.666h-716.793c-84.979-0.688-153.605-69.736-153.605-154.81 0-0.429 0.003-0.858 0.007-1.286v0.069-519.992c-0.004-0.342-0.006-0.75-0.006-1.161 0-85.075 68.626-154.122 153.536-154.81h716.858c84.979 0.688 153.605 69.736 153.605 154.81 0 0.429-0.003 0.858-0.007 1.286v-0.069 519.93c0.004 0.36 0.007 0.789 0.007 1.218 0 85.075-68.626 154.122-153.537 154.81h-0.069zM849.404 738.664l-300.794-305.786c-9.213-9.497-22.094-15.396-36.353-15.396s-27.137 5.896-36.339 15.375l-0.009 0.009-300.794 305.786zM921.597 166.704c0.001-0.114 0.001-0.248 0.001-0.383 0-28.356-22.878-51.367-51.176-51.583h-716.814c-28.322 0.218-51.198 23.229-51.198 51.585 0 0.136 0.001 0.27 0.003 0.404v-0.022 498.619l300.794-305.786c27.603-28.165 66.035-45.621 108.546-45.621s80.942 17.46 108.519 45.598l0.027 0.027 300.794 305.786z" />
<glyph unicode="&#xe913;" glyph-name="phone" d="M897.476 373.864c-12.652 0.972-24.369 3.246-35.576 6.707l1.14-0.3c-26.382 5.871-48.886 12.782-70.632 21.226l3.3-1.127c-10.481 3.968-22.599 6.26-35.258 6.26-40.325 0-75.197-23.307-91.897-57.177l-0.27-0.6-11.329-23.169c-101.34 56.831-182.807 138.422-237.898 236.783l-1.593 3.087 21.565 14.401c34.34 17.23 57.497 52.163 57.497 92.508 0 12.737-2.312 24.942-6.533 36.2l0.231-0.708c-7.067 18.207-13.951 40.777-19.33 63.917l-0.708 3.602c-2.028 8.435-4.26 20.326-6.063 32.36l-0.333 2.709c-12.994 73.165-76.118 128.012-152.048 128.012-0.543 0-1.092-0.005-1.638-0.012l0.084 0.002h-154.305c-0.435 0.006-0.948 0.011-1.46 0.011-85.292 0-154.434-69.145-154.434-154.434 0-7.475 0.533-14.821 1.556-22.017l-0.096 0.828c57.384-443.772 405.256-791.348 844.28-847.744l4.88-0.516h19.201c0.060 0 0.131 0 0.198 0 85.042 0 153.981 68.94 153.981 153.981 0 0.404-0.003 0.807-0.008 1.212v-0.060 154.626c-1.245 74.403-54.894 135.908-125.567 149.291l-0.963 0.155zM923.073 64.68c-0.087-15.274-6.803-28.965-17.415-38.354l-0.059-0.048c-9.397-8.219-21.783-13.231-35.338-13.231-2.388 0-4.739 0.156-7.043 0.458l0.275-0.032c-396.231 52.806-705.964 364.399-755.466 757.035l-0.444 4.308c-0.21 1.836-0.332 3.959-0.332 6.11 0 13.79 4.962 26.43 13.205 36.212l-0.069-0.084c9.395 10.729 23.101 17.482 38.387 17.533h154.38c0.324 0.011 0.707 0.012 1.088 0.012 24.561 0 45.087-17.298 50.052-40.375l0.060-0.338q3.072-21.121 7.68-41.727c6.992-31.256 15.202-57.907 25.209-83.662l-1.338 3.917-71.932-33.47c-17.938-8.339-30.15-26.202-30.15-46.921 0-7.997 1.817-15.562 5.066-22.32l-0.132 0.309c75.338-159.424 200.543-284.98 355.181-358.835l4.499-1.932c5.793-2.292 12.494-3.62 19.516-3.62 21.322 0 39.775 12.265 48.697 30.125l0.141 0.317 32 72.124c21.538-8.121 48.684-16.258 76.467-22.744l4.742-0.933q20.545-4.608 41.599-7.74c23.361-5.075 40.592-25.569 40.592-50.094 0-0.503-0.011-1.002-0.021-1.5l0.003 0.074z" />
<glyph unicode="&#xe914;" glyph-name="pin-map" d="M956.985-85.323c-18.656 5.542-34.826 14.389-48.636 25.962l0.208-0.171q-52.928 35.007-105.619 70.399c-7.023 4.094-11.669 11.592-11.669 20.174 0 12.853 10.42 23.274 23.274 23.274 5.055 0 9.734-1.612 13.551-4.35l-0.070 0.048c25.599-16.875 51.029-33.941 76.523-50.942 16.767-11.178 33.599-22.272 50.261-33.599 2.53-2.319 5.916-3.741 9.634-3.741 2.237 0 4.355 0.516 6.238 1.431l-0.084-0.036c4.236 2.481 7.037 7.009 7.037 12.192 0 0.764-0.060 1.515-0.179 2.245l0.012-0.081v574.965c0 48.66-0.213 97.321 0.149 145.981 0.036 0.537 0.057 1.163 0.057 1.791 0 11.032-6.178 20.624-15.26 25.501l-0.155 0.076q-127.188 77.822-254.054 156.136c-2.901 1.791-6.123 3.093-10.026 5.034v-7.275c0-126.996-0.171-253.991 0.171-380.986 0.036-0.492 0.059-1.068 0.059-1.647 0-13.031-10.564-23.595-23.595-23.595-4.068 0-7.893 1.029-11.233 2.841l0.124-0.061c-7.206 3.896-12.017 11.392-12.017 20.016 0 0.531 0.017 1.058 0.055 1.58l-0.004-0.070v389.071c-3.585-1.707-6.636-2.859-9.345-4.524q-125.331-77.033-250.535-154.281c-11.398-8.277-25.668-13.241-41.098-13.241-10.914 0-21.251 2.484-30.47 6.918l0.421-0.182c-12.528 6.723-23.158 13.489-33.252 20.94l0.742-0.523q-110.014 73.214-219.878 146.601c-2.329 2.006-5.384 3.228-8.724 3.228-2.616 0-5.056-0.751-7.118-2.047l0.057 0.034c-3.542-2.031-5.892-5.793-5.892-10.101 0-0.094 0.001-0.187 0.003-0.28v0.013-19.008q0-352.718-0.149-705.459c-0.032-0.501-0.048-1.087-0.048-1.675 0-11.069 6.19-20.692 15.296-25.597l0.156-0.076q126.546-77.438 252.775-155.346c3.327-2.133 6.912-3.669 11.244-5.952v665.438c-0.031 0.612-0.048 1.33-0.048 2.051 0 2.782 0.257 5.505 0.752 8.143l-0.041-0.274c2.487 10.281 11.608 17.796 22.485 17.796 0.712 0 1.419-0.033 2.116-0.096l-0.089 0.008c11.82-0.883 21.077-10.692 21.077-22.661 0-0.007 0-0.012 0-0.017v0.001c0.235-29.333 0.129-58.667 0.129-87.998v-582.177c4.011 2.004 7.467 3.393 10.668 5.313q62.996 38.676 125.866 77.524c4.241 3.097 9.559 4.956 15.311 4.956 0.559 0 1.112-0.016 1.66-0.052l-0.075 0.004c11.886-1.16 21.099-11.1 21.099-23.192 0-8.595-4.655-16.103-11.58-20.14l-0.11-0.060c-23.466-14.571-47.060-28.991-70.612-43.476-18.581-11.436-37.247-22.74-55.679-34.367-15.084-10.017-33.354-16.42-53.035-17.585l-0.299-0.013c-1.282-0.166-2.422-0.413-3.526-0.744l0.156 0.039h-5.994c-1.083 0.303-2.4 0.565-3.746 0.732l-0.136 0.013c-19.302 1.222-36.951 7.356-51.998 17.149l0.417-0.253q-57.728 35.775-115.624 71.231-69.95 43.050-139.923 86.057c-15.695 9.238-27.32 23.965-32.326 41.485l-0.121 0.496c-0.939 3.327-1.665 6.72-2.496 10.092v745.95c0.341 1.068 0.811 2.133 1.044 3.201 2.711 15.643 11.676 28.794 24.175 37.012l0.208 0.13c7.077 3.785 15.456 7.395 24.149 10.318l1.195 0.348h15.999c10.351-2.493 19.466-6.468 27.656-11.752l-0.349 0.211q119.806-80.105 239.761-159.996c4.414-3.428 10.033-5.496 16.134-5.496 5.788 0 11.141 1.86 15.493 5.015l-0.077-0.053q125.353 77.438 250.897 154.578c10.539 6.806 22.85 11.983 36.034 14.803l0.724 0.131c5.205 1.023 10.476 1.685 15.723 2.517h12.012c0.818-0.308 1.788-0.567 2.788-0.733l0.092-0.012c19.103-1.74 36.435-8.075 51.273-17.879l-0.415 0.256q73.876-45.758 147.987-91.114c35.307-21.716 70.548-43.541 105.919-65.15 15.887-9.27 27.661-24.121 32.73-41.803l0.123-0.5c0.939-3.327 1.665-6.72 2.496-10.068v-745.928c-0.339-0.736-0.673-1.636-0.945-2.561l-0.036-0.147c-2.607-15.699-11.565-28.913-24.090-37.14l-0.207-0.129c-7.188-3.902-15.688-7.631-24.511-10.666l-1.216-0.364zM668.904-85.216c-8.118 3.228-14.628 9.061-18.636 16.451l-0.095 0.19c-38.567 58.092-74.782 124.861-104.998 194.829l-3.225 8.388c-12.793 29.329-23.388 63.658-30.114 99.352l-0.477 3.046c-1.863 9.316-2.931 20.025-2.931 30.983 0 91.251 73.973 165.225 165.225 165.225 80.9 0 148.22-58.143 162.451-134.922l0.156-1.019c1.452-9.303 2.281-20.033 2.281-30.958 0-20.721-2.985-40.744-8.546-59.665l0.375 1.493c-14.146-51.841-32.052-96.841-54.275-139.224l1.795 3.758c-28.59-57.427-56.144-104.988-86.235-150.731l3.356 5.433c-3.932-6.089-9.866-10.596-16.856-12.619l-0.211-0.052zM673.747-17.294c1.215 1.771 2.133 2.922 2.859 4.266 19.925 35.967 40.532 71.551 59.498 108.010 18.227 33.42 34.215 72.275 45.916 112.943l1.018 4.132c5.34 16.501 8.416 35.488 8.416 55.192 0 5.894-0.276 11.724-0.814 17.478l0.057-0.735c-7.983 58.082-57.289 102.343-116.931 102.343-65.153 0-117.972-52.816-117.972-117.972 0-6.078 0.46-12.048 1.346-17.877l-0.083 0.655c4.815-32.076 12.917-60.907 24.122-88.132l-0.911 2.501c27.508-67.48 57.133-124.787 91.168-179.045l-2.807 4.797c1.599-2.817 3.264-5.484 5.184-8.64zM721.724 264.109c0-26.014-21.088-47.102-47.102-47.102s-47.102 21.088-47.102 47.102v0c0 26.014 21.088 47.102 47.102 47.102s47.102-21.088 47.102-47.102v0z" />
<glyph unicode="&#xe915;" glyph-name="pin" d="M512 938.664c-0.936 0.012-2.043 0.012-3.151 0.012-226.873 0-411.008-182.992-412.845-409.43l-0.001-0.178c0-276.476 366.589-588.796 382.207-602.104 9.072-7.644 20.892-12.288 33.792-12.288s24.72 4.644 33.874 12.349l-0.082-0.061c18.24 13.308 382.207 325.628 382.207 602.104-1.839 226.617-185.973 409.608-412.847 409.608-1.108 0-2.215-0.006-3.321-0.012l0.171 0.001zM512 34.992c-110.782 102.396-311.996 323.072-311.996 494.077 0 172.333 139.698 312.032 312.032 312.032s312.032-139.698 312.032-312.032v0c0-171.010-201.276-392.191-312.060-494.077zM512 733.863c-111.723-1.801-201.597-92.795-201.597-204.776 0-113.104 91.692-204.801 204.801-204.801 113.1 0 204.78 91.676 204.801 204.774v0.001c0 0.010 0 0.012 0 0.025 0 113.104-91.692 204.801-204.801 204.801-1.123 0-2.244-0.012-3.372-0.028l0.169 0.003zM512 426.667c-55.861 0.9-100.799 46.397-100.799 102.387 0 56.557 45.848 102.396 102.396 102.396s102.396-45.838 102.396-102.387v-0.001c0-0.006 0-0.012 0-0.012 0-56.557-45.848-102.396-102.396-102.396-0.564 0-1.122 0.007-1.687 0.012l0.084-0.001z" />
<glyph unicode="&#xe916;" glyph-name="reload" d="M177.262 814.138c89.196 77.375 206.434 124.523 334.684 124.523 282.784 0 512.019-229.244 512.019-512.019 0-110.023-34.704-211.943-93.762-295.408l1.071 1.596-163.272 293.838h153.603c0 0.015 0 0.036 0 0.060 0 226.223-183.39 409.615-409.615 409.615-110.164 0-210.177-43.495-283.793-114.244l0.132 0.132zM846.669 39.256c-89.196-77.375-206.434-124.523-334.684-124.523-282.784 0-512.019 229.244-512.019 512.019 0 110.023 34.704 211.943 93.762 295.408l-1.071-1.596 163.336-293.898h-153.603c0.005-226.22 183.393-409.615 409.615-409.615 110.164 0 210.179 43.495 283.793 114.244l-0.132-0.132z" />
<glyph unicode="&#xe917;" glyph-name="remove" d="M960 362.667h-895.999c-35.346 0-64 28.654-64 64s28.654 64 64 64v0h895.999c35.346 0 64-28.654 64-64s-28.654-64-64-64v0z" />
<glyph unicode="&#xe918;" glyph-name="search" d="M1009.497 1.514l-189.947 188.411c63.049 78.112 101.21 178.602 101.21 288.003 0 254.261-206.119 460.379-460.379 460.379s-460.379-206.119-460.379-460.379c0-254.261 206.119-460.379 460.379-460.379 109.402 0 209.891 38.16 288.883 101.896l-0.879-0.687 188.31-188.411c9.25-9.457 22.142-15.322 36.403-15.322 28.114 0 50.905 22.79 50.905 50.905 0 13.853-5.534 26.414-14.511 35.592l0.009-0.009zM461.414 118.76c-197.935 0-358.391 160.458-358.391 358.391s160.458 358.391 358.391 358.391c197.935 0 358.391-160.458 358.391-358.391v0c0-197.935-160.458-358.391-358.391-358.391v0z" />
<glyph unicode="&#xe919;" glyph-name="heart" d="M512-33.552c-0.085 0-0.185-0.001-0.285-0.001-14.038 0-26.755 5.653-35.999 14.808l0.004-0.004-397.322 397.859c-48.418 48.418-78.364 115.305-78.364 189.188 0 147.765 119.788 267.552 267.552 267.552 73.883 0 140.771-29.947 189.188-78.364l55.226-55.226 55.226 55.226c48.425 48.434 115.327 78.392 189.227 78.392 147.781 0 267.58-119.799 267.58-267.58 0-73.881-29.942-140.768-78.353-189.188v0l-397.322-397.859c-9.24-9.15-21.957-14.805-35.995-14.805-0.101 0-0.2 0-0.301 0.001h0.016z" />
<glyph unicode="&#xe91a;" glyph-name="time" d="M512-85.333c-282.769 0-512 229.23-512 512s229.23 512 512 512c282.769 0 512-229.23 512-512v0c0-282.769-229.23-512-512-512v0zM512 17.068c226.215 0 409.599 183.384 409.599 409.599s-183.384 409.599-409.599 409.599c-226.215 0-409.599-183.384-409.599-409.599v0c0-226.215 183.384-409.599 409.599-409.599v0zM563.2 426.667h204.8v-102.4h-307.2v358.4h102.4z" />
<glyph unicode="&#xe91b;" glyph-name="timer" d="M785.971 720.826l70.863 70.863 68.932-68.932-70.863-70.863c59.809-74.359 95.996-169.925 95.996-273.942 0-242.381-196.489-438.87-438.87-438.87s-438.87 196.489-438.87 438.87c0 242.381 196.489 438.87 438.87 438.87 104.018 0 199.583-36.187 274.794-96.659l-0.853 0.663zM512 36.6c188.508 0 341.324 152.816 341.324 341.324s-152.816 341.324-341.324 341.324c-188.508 0-341.324-152.816-341.324-341.324v0c0-188.508 152.816-341.324 341.324-341.324v0zM463.256 621.76h97.546v-292.58h-97.546zM316.966 963.083h390.126v-97.546h-390.126z" />
<glyph unicode="&#xe91c;" glyph-name="list" d="M113.779 711.111c0-31.419-25.471-56.889-56.889-56.889s-56.889 25.471-56.889 56.889c0 31.419 25.471 56.889 56.889 56.889s56.889-25.471 56.889-56.889zM113.779 426.667c0-31.419-25.471-56.889-56.889-56.889s-56.889 25.471-56.889 56.889c0 31.419 25.471 56.889 56.889 56.889s56.889-25.471 56.889-56.889zM113.779 142.223c0-31.419-25.471-56.889-56.889-56.889s-56.889 25.471-56.889 56.889c0 31.419 25.471 56.889 56.889 56.889s56.889-25.471 56.889-56.889zM254.295 483.556h742.968c14.767 0 26.737-11.971 26.737-26.737v-60.303c0-14.767-11.971-26.737-26.737-26.737h-742.968c-14.767 0-26.737 11.971-26.737 26.737v60.303c0 14.767 11.971 26.737 26.737 26.737zM254.295 199.111h742.968c14.767 0 26.737-11.971 26.737-26.737v-60.303c0-14.767-11.971-26.737-26.737-26.737h-742.968c-14.767 0-26.737 11.971-26.737 26.737v60.303c0 14.767 11.971 26.737 26.737 26.737zM254.295 768h742.968c14.767 0 26.737-11.971 26.737-26.737v-60.303c0-14.767-11.971-26.737-26.737-26.737h-742.968c-14.767 0-26.737 11.971-26.737 26.737v60.303c0 14.767 11.971 26.737 26.737 26.737z" />
<glyph unicode="&#xe91d;" glyph-name="user" d="M512 483.556c125.676 0 227.555 101.88 227.555 227.555s-101.88 227.555-227.555 227.555c-125.676 0-227.555-101.88-227.555-227.555v0c0-125.676 101.88-227.555 227.555-227.555v0zM512 824.889c62.837 0 113.777-50.94 113.777-113.777s-50.94-113.777-113.777-113.777c-62.837 0-113.777 50.94-113.777 113.777v0c0 62.837 50.94 113.777 113.777 113.777v0zM512 369.778c-219.931 0-398.222-178.29-398.222-398.222v0c0-31.419 25.471-56.889 56.889-56.889s56.889 25.471 56.889 56.889v0c0 157.094 127.35 284.443 284.443 284.443s284.443-127.35 284.443-284.443v0c0-31.419 25.471-56.889 56.889-56.889s56.889 25.471 56.889 56.889v0c0 219.931-178.29 398.222-398.222 398.222v0z" />
<glyph unicode="&#xe91e;" glyph-name="web" d="M512-85.394c-282.769 0-512 229.231-512 512s229.231 512 512 512c282.769 0 512-229.231 512-512v0c0-282.769-229.231-512-512-512v0zM394.767 34.111c-48.122 99.755-79.115 216.155-85.915 339.007l-0.104 2.366h-202.76c21.152-162.75 135.12-294.206 286.305-340.607l2.904-0.767zM411.173 375.485c8.050-128.038 44.473-245.986 103.001-349.814l-2.113 4.077c56.431 99.747 92.856 217.698 100.77 343.387l0.119 2.35h-201.777zM918.503 375.485h-202.76c-6.904-125.219-37.897-241.619-88.4-346.881l2.381 5.507c153.868 47.318 267.621 178.701 288.498 339.251l0.218 2.062zM105.559 477.849h202.76c6.904 125.219 37.897 241.619 88.4 346.881l-2.381-5.507c-153.91-47.307-267.697-178.723-288.561-339.314l-0.218-2.059zM411.173 477.849h201.653c-8.012 128.032-44.416 245.986-102.939 349.811l2.112-4.074c-56.411-99.75-92.815-217.703-100.709-343.391l-0.118-2.345zM629.233 819.223c48.122-99.755 79.115-216.155 85.915-339.007l0.104-2.366h202.76c-21.152 162.75-135.12 294.206-286.305 340.607l-2.904 0.767z" />
<glyph unicode="&#xe91f;" glyph-name="star" d="M796.524-60.692c-0.082 0-0.179-0.001-0.275-0.001-8.523 0-16.562 2.078-23.637 5.754l0.285-0.135-261.667 136.99-261.667-136.99c-6.923-3.711-15.146-5.891-23.878-5.891-28.35 0-51.333 22.982-51.333 51.333 0 3.17 0.287 6.274 0.837 9.285l-0.048-0.314 51.333 288.834-211.335 205.255c-9.347 9.181-15.14 21.954-15.14 36.081 0 25.557 18.96 46.685 43.583 50.085l0.265 0.030 292.452 42.559 128.756 263.206c8.516 17.252 25.985 28.91 46.177 28.91s37.66-11.657 46.042-28.61l0.135-0.301 130.295-262.668 292.452-42.559c24.886-3.431 43.846-24.559 43.846-50.115 0-14.126-5.793-26.899-15.132-36.074l-0.007-0.007-211.181-205.255 51.333-288.834c0.611-2.957 0.961-6.355 0.961-9.835 0-28.053-22.741-50.794-50.794-50.794-0.879 0-1.754 0.023-2.623 0.066l0.121-0.005z" />
<glyph unicode="&#xe920;" glyph-name="arrow-right-long" d="M1020.995 442.769c-2.152 5.465-5.188 10.145-8.976 14.098l0.014-0.015-213.374 213.374c-7.749 7.781-18.473 12.596-30.321 12.596-23.632 0-42.789-19.158-42.789-42.789 0-11.784 4.764-22.455 12.47-30.194l140.826-140.826h-836.171c-23.569 0-42.675-19.107-42.675-42.675v0c0-23.569 19.107-42.675 42.675-42.675v0h836.171l-140.827-140.272c-7.694-7.725-12.451-18.383-12.451-30.15 0-23.599 19.131-42.729 42.729-42.729 11.831 0 22.539 4.809 30.277 12.577l213.375 213.375c7.462 7.874 12.051 18.536 12.051 30.27 0 5.834-1.134 11.403-3.195 16.499l0.106-0.295z" />
<glyph unicode="&#xe921;" glyph-name="mobile" d="M256 836.267v-819.2h512v819.2zM204.8 938.667h614.4c28.277 0 51.2-22.923 51.2-51.2v0-921.6c0-28.277-22.923-51.2-51.2-51.2v0h-614.4c-28.277 0-51.2 22.923-51.2 51.2v0 921.6c0 28.277 22.923 51.2 51.2 51.2v0zM512 170.667c28.277 0 51.2-22.923 51.2-51.2s-22.923-51.2-51.2-51.2c-28.277 0-51.2 22.923-51.2 51.2v0c0 28.277 22.923 51.2 51.2 51.2v0z" />
<glyph unicode="&#xe922;" glyph-name="filter" d="M620.29-85.333c-12.875 0.005-24.747 4.288-34.276 11.504l0.143-0.103-227.601 173.465c-13.551 10.499-22.188 26.775-22.188 45.069 0 0.164 0.001 0.327 0.003 0.489v-0.025 186.026l-273.066 524.492c-4.035 7.609-6.403 16.636-6.403 26.215 0 31.407 25.46 56.867 56.867 56.867 0.067 0 0.133 0 0.201 0h796.454c0.104 0.001 0.228 0.001 0.352 0.001 31.105 0 56.32-25.215 56.32-56.32 0-10.493-2.869-20.317-7.868-28.728l0.143 0.26-284.466-523.945v-358.399c0.005-0.289 0.008-0.629 0.008-0.971 0-30.425-24.303-55.175-54.555-55.895l-0.067-0.001zM449.624 172.92l113.8-87.040v258.866c0 0.091-0.001 0.199-0.001 0.307 0 9.001 2.092 17.515 5.816 25.080l-0.148-0.333 244.599 455.132h-606.412l234.973-455.132c3.959-7.549 6.281-16.492 6.281-25.979 0-0.059 0-0.117 0-0.177v0.009z" />
<glyph unicode="&#xe923;" glyph-name="move" d="M1009.182 461.996l-153.603 153.603c-9.412 10.061-22.768 16.331-37.59 16.331-28.402 0-51.426-23.025-51.426-51.426 0-14.822 6.27-28.178 16.302-37.563l0.029-0.026 66.049-65.067h-285.702v286.194l66.049-66.541c9.412-10.061 22.768-16.331 37.59-16.331 28.402 0 51.426 23.025 51.426 51.426 0 14.822-6.27 28.178-16.302 37.563l-0.029 0.026-153.603 153.603c-9.265 9.177-22.019 14.847-36.097 14.847s-26.831-5.67-36.1-14.852l-153.6-153.6c-8.755-9.177-14.143-21.633-14.143-35.348 0-28.3 22.942-51.242 51.242-51.242 13.593 0 25.949 5.292 35.121 13.93l-0.026-0.024 66.049 66.049v-285.702h-286.194l66.541 66.049c10.061 9.412 16.331 22.768 16.331 37.59 0 28.402-23.025 51.426-51.426 51.426-14.822 0-28.178-6.27-37.563-16.302l-0.026-0.029-153.603-153.603c-9.177-9.357-14.841-22.188-14.841-36.343s5.664-26.985 14.849-36.351l153.595-153.595c9.412-10.061 22.768-16.331 37.59-16.331 28.402 0 51.426 23.025 51.426 51.426 0 14.822-6.27 28.178-16.302 37.563l-0.029 0.026-66.049 66.049h285.702v-286.194l-66.049 66.541c-9.412 10.061-22.768 16.331-37.59 16.331-28.402 0-51.426-23.025-51.426-51.426 0-14.822 6.27-28.178 16.302-37.563l0.029-0.026 153.603-153.603c9.265-9.177 22.019-14.847 36.097-14.847s26.831 5.67 36.1 14.852l153.6 153.6c10.061 9.412 16.331 22.768 16.331 37.59 0 28.402-23.025 51.426-51.426 51.426-14.822 0-28.178-6.27-37.563-16.302l-0.026-0.029-65.557-66.049v285.702h286.194l-66.541-66.049c-8.572-9.163-13.836-21.514-13.836-35.095 0-28.402 23.025-51.426 51.426-51.426 13.581 0 25.931 5.265 35.124 13.863l-0.029-0.026 153.603 153.603c9.178 9.174 14.855 21.849 14.855 35.851s-5.677 26.678-14.855 35.851v0z" />
<glyph unicode="&#xe924;" glyph-name="apple" d="M988.867 398.086c0 209.559-145.412 333.641-286.611 337.961-3.404 0.132-7.4 0.207-11.414 0.207-52.047 0-101.13-12.695-144.319-35.157l1.737 0.822c0 21.33-4.265 38.393-4.265 59.668 8.303-0.796 17.954-1.25 27.71-1.25 49.067 0 95.451 11.487 136.611 31.916l-1.792-0.805c50.29 32.119 87.121 81.519 102.335 139.663l0.365 1.643c-17.377 3.669-37.341 5.771-57.798 5.771-40.893 0-79.824-8.397-115.165-23.56l1.903 0.726c-42.169-27.652-75.677-65.296-97.656-109.666l-0.725-1.618c-10.032 50.050-27.916 94.497-52.514 134.36l1.004-1.746-93.956-38.339c47.356-54.507 79.63-123.289 89.64-199.090l0.209-1.937c-46.353 24.207-101.24 38.406-159.444 38.406-1.085 0-2.168-0.005-3.251-0.015l0.166 0.001c-136.88-4.319-286.611-128.401-286.611-337.961 5.704-153.568 71.827-290.657 175.147-389.038l0.232-0.22c34.667-47.345 85.295-81.219 143.833-93.778l1.578-0.284c63.988 4.265 89.849 42.658 166.794 42.658s102.646-42.658 171.061-42.658c72.732 0 145.412 89.849 196.762 179.645 57.556 85.63 93.637 189.996 98.393 302.466l0.040 1.207zM402.955 573.412c-111.232-85.317-136.88-235.261-29.86-449.139-46.871 29.86-158.263 141.146-158.263 269.494 1.327 99.553 82.34 179.745 182.083 179.745 2.125 0 4.24-0.036 6.346-0.109l-0.306 0.009z" />
<glyph unicode="&#xe925;" glyph-name="clock" d="M512 861.867c240.354 0 435.2-194.846 435.2-435.2s-194.846-435.2-435.2-435.2c-240.354 0-435.2 194.846-435.2 435.2v0c0.291 240.237 194.963 434.909 435.172 435.2h0.028zM512 93.867c183.8 0 332.8 149 332.8 332.8s-149 332.8-332.8 332.8c-183.8 0-332.8-149-332.8-332.8v0c0.204-183.718 149.082-332.596 332.78-332.8h0.020zM665.6 298.667c-8.328 0.018-16.184 2.021-23.125 5.562l0.29-0.134-153.6 76.8c-16.933 8.574-28.344 25.839-28.365 45.77v230.403c0 28.277 22.923 51.2 51.2 51.2s51.2-22.923 51.2-51.2v0-198.758l125.286-62.669c16.891-8.601 28.259-25.859 28.259-45.773 0-28.258-22.892-51.169-51.143-51.2h-0.003z" />
<glyph unicode="&#xe926;" glyph-name="disabled" d="M320 508.587v-91.853c-47.018-39.020-76.738-97.473-76.738-162.867 0-116.643 94.557-211.2 211.2-211.2 86.183 0 160.308 51.62 193.146 125.629l0.533 1.347 47.923-72.448c-52.128-79.522-140.84-131.317-241.649-131.317-159.058 0-288 128.942-288 288 0 109.889 61.545 205.403 152.046 253.954l1.54 0.755zM704 503.467c21.208 0 38.4-17.192 38.4-38.4s-17.192-38.4-38.4-38.4v0h-153.6c0-100.608 139.827-35.84 202.547-132.198 27.853-42.957 75.008-115.098 99.43-157.082 3.088-5.11 4.972-11.255 5.119-17.828l0.001-0.041c0.005-0.238 0.008-0.519 0.008-0.8 0-14.297-7.651-26.808-19.081-33.661l-0.178-0.099c-5.368-2.844-11.735-4.513-18.492-4.513-14.151 0-26.591 7.322-33.739 18.384l-0.095 0.158c-25.6 38.81-55.706 84.89-76.8 116.173-30.003 44.8-50.227 56.013-158.72 57.958-78.285 1.382-153.6 16.538-153.6 115.2v153.6c0 42.415 34.385 76.8 76.8 76.8s76.8-34.385 76.8-76.8v0-38.451zM473.6 887.467c63.623 0 115.2-51.577 115.2-115.2s-51.577-115.2-115.2-115.2c-63.623 0-115.2 51.577-115.2 115.2v0c0.029 63.611 51.588 115.171 115.197 115.2h0.003z" />
<glyph unicode="&#xe927;" glyph-name="document" d="M296.909 836.267h250.88c14.137-0.003 26.935-5.735 36.198-15.001l250.88-250.88c9.266-9.263 14.998-22.061 15.002-36.198v-394.241c0-67.865-55.015-122.88-122.88-122.88h-430.080c-67.865 0-122.88 55.015-122.88 122.88v0 573.44c0 67.865 55.015 122.88 122.88 122.88v0zM526.592 733.867h-229.683c-11.311 0-20.48-9.169-20.48-20.48v0-573.44c0-11.311 9.169-20.48 20.48-20.48v0h430.080c11.311 0 20.48 9.169 20.48 20.48v373.043zM798.669 482.987h-250.88c-28.277 0-51.2 22.923-51.2 51.2v0 250.88c0 28.277 22.923 51.2 51.2 51.2s51.2-22.923 51.2-51.2v0-199.68h199.68c28.277 0 51.2-22.923 51.2-51.2s-22.923-51.2-51.2-51.2v0z" />
<glyph unicode="&#xe928;" glyph-name="external-2" d="M659.661 43.23h-406.016c-69.017 0.087-124.943 56.013-125.030 125.022v406.024c0.087 69.017 56.013 124.943 125.022 125.030h221.448c28.277 0 51.2-22.923 51.2-51.2s-22.923-51.2-51.2-51.2v0h-221.44c-12.498 0-22.63-10.132-22.63-22.63v0-406.016c0-12.498 10.132-22.63 22.63-22.63v0h406.016c12.498 0 22.63 10.132 22.63 22.63v0 221.491c0 28.277 22.923 51.2 51.2 51.2s51.2-22.923 51.2-51.2v0-221.491c-0.087-69.017-56.013-124.943-125.022-125.030h-0.008zM844.237 486.161c-28.277 0-51.2 22.923-51.2 51.2v0 170.291h-170.291c-28.277 0-51.2 22.923-51.2 51.2s22.923 51.2 51.2 51.2v0h221.491c28.277 0 51.2-22.923 51.2-51.2v0-221.491c0-28.277-22.923-51.2-51.2-51.2v0zM438.17 301.637c-14.137 0.003-26.935 5.735-36.198 15.001v0c-9.262 9.265-14.991 22.063-14.991 36.198s5.729 26.934 14.991 36.199l406.016 406.016c9.265 9.262 22.063 14.991 36.198 14.991s26.934-5.729 36.199-14.991v0c9.262-9.265 14.991-22.063 14.991-36.198s-5.729-26.934-14.991-36.199l-406.016-406.016c-9.263-9.266-22.061-14.998-36.198-15.002h-0.001z" />
<glyph unicode="&#xe929;" glyph-name="eye" d="M512 77.585c-136.372 5.175-257.13 67.91-339.369 164.461l-0.548 0.659c-43.987 46.802-82.343 99.705-113.48 157.094l-1.976 3.981c-3.405 6.668-5.4 14.544-5.4 22.886s1.995 16.218 5.534 23.177l-0.134-0.291c33.113 61.37 71.469 114.273 115.825 161.471l-0.369-0.396c82.787 97.21 203.545 159.945 339.051 165.094l0.866 0.026c136.372-5.175 257.13-67.91 339.369-164.461l0.548-0.659c44.007-46.802 82.378-99.704 113.53-157.095l1.977-3.98c3.405-6.668 5.4-14.544 5.4-22.886s-1.995-16.218-5.534-23.177l0.134 0.291c-33.128-61.37-71.5-114.273-115.873-161.468l0.365 0.392c-82.787-97.21-203.545-159.945-339.051-165.094l-0.866-0.026zM161.126 426.718c39.117-65.075 165.018-246.784 350.874-246.784 186.675 0 311.91 181.402 350.874 246.63-39.117 65.075-165.018 246.784-350.874 246.784-186.675 0-311.91-181.402-350.874-246.63zM511.898 605.969c98.969 0 179.2-80.231 179.2-179.2s-80.231-179.2-179.2-179.2c-98.969 0-179.2 80.231-179.2 179.2v0c0.175 98.899 80.301 179.026 179.183 179.2h0.017zM511.898 349.969c42.415 0 76.8 34.385 76.8 76.8s-34.385 76.8-76.8 76.8c-42.415 0-76.8-34.385-76.8-76.8v0c0-42.415 34.385-76.8 76.8-76.8v0z" />
<glyph unicode="&#xe92a;" glyph-name="home" d="M512 810.667c11.903-0.005 22.856-4.071 31.548-10.887l-0.111 0.084 299.52-232.96c12.071-9.453 19.758-24.027 19.763-40.396v-366.081c0-65.037-52.723-117.76-117.76-117.76h-465.92c-65.037 0-117.76 52.723-117.76 117.76v0 366.080c0.005 16.37 7.692 30.943 19.651 40.312l0.112 0.084 299.52 232.96c8.581 6.732 19.534 10.798 31.436 10.803h0.001zM760.32 501.47l-248.32 193.126-248.32-193.126v-341.043c0-8.483 6.877-15.36 15.36-15.36h465.92c8.483 0 15.36 6.877 15.36 15.36v0zM611.84 42.667c-28.277 0-51.2 22.923-51.2 51.2v0 281.6h-97.28v-281.6c0-28.277-22.923-51.2-51.2-51.2s-51.2 22.923-51.2 51.2v0 332.8c0 28.277 22.923 51.2 51.2 51.2v0h199.68c28.277 0 51.2-22.923 51.2-51.2v0-332.8c0-28.277-22.923-51.2-51.2-51.2v0z" />
<glyph unicode="&#xe92b;" glyph-name="info" d="M512 887.467c254.493 0 460.8-206.307 460.8-460.8s-206.307-460.8-460.8-460.8c-254.493 0-460.8 206.307-460.8 460.8v0c0.291 254.376 206.425 460.509 460.773 460.8h0.027zM512 68.267c197.939 0 358.4 160.461 358.4 358.4s-160.461 358.4-358.4 358.4c-197.939 0-358.4-160.461-358.4-358.4v0c0.233-197.845 160.555-358.167 358.378-358.4h0.022zM512 221.867c-28.277 0-51.2 22.923-51.2 51.2v0 153.6c0 28.277 22.923 51.2 51.2 51.2v0c28.277 0 51.2-22.923 51.2-51.2v0-153.6c0-28.277-22.923-51.2-51.2-51.2v0zM563.2 580.267c0-28.277-22.923-51.2-51.2-51.2s-51.2 22.923-51.2 51.2c0 28.277 22.923 51.2 51.2 51.2s51.2-22.923 51.2-51.2z" />
<glyph unicode="&#xe92c;" glyph-name="length" d="M844.8 486.417c-28.277 0-51.2 22.923-51.2 51.2v0 170.65h-170.65c-28.277 0-51.2 22.923-51.2 51.2s22.923 51.2 51.2 51.2v0h221.85c28.277 0 51.2-22.923 51.2-51.2v0-221.85c0-28.277-22.923-51.2-51.2-51.2v0zM401.050 42.667h-221.85c-28.277 0-51.2 22.923-51.2 51.2v0 221.85c0 28.277 22.923 51.2 51.2 51.2s51.2-22.923 51.2-51.2v0-170.65h170.65c28.277 0 51.2-22.923 51.2-51.2s-22.923-51.2-51.2-51.2v0zM588.8 452.267c-14.137 0.003-26.935 5.735-36.198 15.001v0c-9.262 9.265-14.991 22.063-14.991 36.198s5.729 26.934 14.991 36.199l256 256c9.265 9.262 22.063 14.991 36.198 14.991s26.934-5.729 36.199-14.991v0c9.262-9.265 14.991-22.063 14.991-36.198s-5.729-26.934-14.991-36.199l-256-256c-9.263-9.266-22.061-14.998-36.198-15.002h-0.001zM179.2 42.667c-14.137 0.003-26.935 5.735-36.198 15.001v0c-9.262 9.265-14.991 22.063-14.991 36.198s5.729 26.934 14.991 36.199l256 256c9.265 9.262 22.063 14.991 36.198 14.991s26.934-5.729 36.199-14.991v0c9.262-9.265 14.991-22.063 14.991-36.198s-5.729-26.934-14.991-36.199l-256-256c-9.263-9.266-22.061-14.998-36.198-15.002h-0.001z" />
<glyph unicode="&#xe92d;" glyph-name="stamp" d="M811.827 42.667h-599.603c-46.486 0.029-84.166 37.691-84.224 84.167v39.276c0.117 101.439 82.318 183.64 183.746 183.757h400.549c101.417-0.146 183.589-82.336 183.706-183.746v-39.281c-0.058-46.464-37.709-84.115-84.167-84.173h-0.006zM230.4 145.067h563.2v21.043c-0.029 44.902-36.407 81.299-81.3 81.357h-400.544c-44.909-0.058-81.299-36.448-81.357-81.351v-0.006zM435.2 554.667h153.6v-307.2h-153.6zM512 810.667c98.969 0 179.2-80.231 179.2-179.2s-80.231-179.2-179.2-179.2c-98.969 0-179.2 80.231-179.2 179.2v0c0 98.969 80.231 179.2 179.2 179.2v0zM512 554.667c42.415 0 76.8 34.385 76.8 76.8s-34.385 76.8-76.8 76.8c-42.415 0-76.8-34.385-76.8-76.8v0c0-42.415 34.385-76.8 76.8-76.8v0z" />
<glyph unicode="&#xe92e;" glyph-name="foto" d="M847.147 40.363h-670.293c-69.357 0.097-125.556 56.296-125.653 125.644v409.609c0.073 69.376 56.281 125.599 125.644 125.696h121.566l59.264 88.917c9.314 13.817 24.905 22.784 42.591 22.784 0.027 0 0.053 0 0.080 0h223.399c0.023 0 0.049 0 0.076 0 17.685 0 33.277-8.967 42.475-22.602l0.116-0.182 59.264-88.917h121.557c69.336-0.146 125.495-56.35 125.568-125.689v-409.607c-0.097-69.357-56.296-125.556-125.644-125.653h-0.009zM176.853 598.912c-12.833-0.024-23.229-10.421-23.253-23.251v-409.602c0.024-12.833 10.421-23.229 23.251-23.253h670.295c12.833 0.024 23.229 10.421 23.253 23.251v409.602c-0.024 12.833-10.421 23.229-23.251 23.253h-148.951c-0.023 0-0.049 0-0.076 0-17.685 0-33.277 8.967-42.475 22.602l-0.116 0.182-59.221 88.917h-168.619l-59.264-88.917c-9.314-13.817-24.905-22.784-42.591-22.784-0.027 0-0.053 0-0.080 0h0.004zM512 589.611c110.539 0 200.149-89.61 200.149-200.149s-89.61-200.149-200.149-200.149c-110.539 0-200.149 89.61-200.149 200.149v0c0.218 110.452 89.698 199.931 200.128 200.149h0.021zM512 291.712c53.985 0 97.749 43.764 97.749 97.749s-43.764 97.749-97.749 97.749c-53.985 0-97.749-43.764-97.749-97.749v0c0.049-53.966 43.783-97.701 97.745-97.749h0.005z" />
<glyph unicode="&#xe92f;" glyph-name="bike" d="M224-48.93c-123.712 0-224 100.288-224 224s100.288 224 224 224c123.658 0 223.912-100.201 224-223.838v-0.008c-0.146-123.653-100.347-223.855-223.986-224h-0.014zM224 348.024c-95.435 0-172.8-77.365-172.8-172.8s77.365-172.8 172.8-172.8c95.435 0 172.8 77.365 172.8 172.8v0c-0.117 95.388-77.412 172.683-172.789 172.8h-0.011zM800-48.776c-123.712 0-224 100.288-224 224s100.288 224 224 224c123.712 0 224-100.288 224-224v0c-0.146-123.653-100.347-223.855-223.986-224h-0.014zM800 348.024c-95.435 0-172.8-77.365-172.8-172.8s77.365-172.8 172.8-172.8c95.435 0 172.8 77.365 172.8 172.8v0c-0.087 95.4-77.401 172.713-172.792 172.8h-0.008zM554.701 92.331l27.648 277.606c0.162 1.528 0.254 3.301 0.254 5.095 0 21.878-13.722 40.551-33.029 47.882l-0.352 0.117-161.741 59.904 125.235 122.368 143.77-135.168c9.136-8.594 21.475-13.875 35.047-13.875 0.009 0 0.017 0 0.026 0h138.239c28.277 0 51.2 22.923 51.2 51.2s-22.923 51.2-51.2 51.2v0h-118.118l-164.608 155.085c-9.144 8.63-21.507 13.934-35.109 13.934-13.94 0-26.579-5.571-35.812-14.608l0.009 0.009-218.010-213.402c-9.522-9.306-15.426-22.278-15.426-36.628 0-21.884 13.73-40.561 33.045-47.888l0.352-0.117 200.397-74.445-23.757-238.336c-0.159-1.513-0.249-3.268-0.249-5.045 0-26.562 20.227-48.399 46.118-50.951l0.212-0.017c1.741 0 3.482-0.256 5.12-0.256 26.453 0.027 48.206 20.11 50.874 45.86l0.018 0.22zM647.936 688.709c-0.015 0-0.033 0-0.051 0-58.986 0-106.803 47.817-106.803 106.803s47.817 106.803 106.803 106.803c58.986 0 106.803-47.817 106.803-106.803 0-0.018 0-0.036 0-0.054v0.003c-0.087-58.922-47.83-106.665-106.744-106.752h-0.008z" />
<glyph unicode="&#xe930;" glyph-name="mark" d="M512 821.335c217.969 0 394.668-176.699 394.668-394.668s-176.699-394.668-394.668-394.668c-217.969 0-394.668 176.699-394.668 394.668 0.231 217.872 176.796 394.434 394.668 394.668zM512 610.844c-101.72 0-184.177-82.46-184.177-184.177s82.46-184.177 184.177-184.177c101.72 0 184.177 82.46 184.177 184.177s-82.46 184.177-184.177 184.177z" />
</font>
</defs>
</svg>
